Fuck With Hot Indonesian Maid – Seks dengan Pembantu Rumah Tangga Binal


Download Fuck With Hot Indonesian Maid – Seks dengan Pembantu Rumah Tangga Binal

Spekulasi penjudulan suka-suka gan. Untuk memenuhi request XXX Lokalan :v

Informasi Video :

General
Complete name : P:\Downloads\Video\Lokalan\Hentaikuindo.Us_daa199e6cc20794bd4d51a720c57fe0b.mp4
Format : MPEG-4
Format profile : Base Media
Codec ID : isom (isom/iso2/avc1/mp41)
File size : 16.2 MiB
Duration : 16 min 40 s
Overall bit rate : 136 kb/s
Writing application : Lavf55.22.100

Fuck With Hot Indonesian Maid - Seks dengan Pembantu Rumah Tangga Binal
Fuck With Hot Indonesian Maid – Seks dengan Pembantu Rumah Tangga Binal

Video
ID : 1
Format : AVC
Format/Info : Advanced Video Codec
Format profile : Main@L3.1
Format settings, CABAC : Yes
Format settings, ReFrames : 4 frames
Codec ID : avc1
Codec ID/Info : Advanced Video Coding
Duration : 16 min 40 s
Bit rate : 99.6 kb/s
Width : 372 pixels
Height : 280 pixels
Display aspect ratio : 4:3
Original display aspect rat : 4:3
Frame rate mode : Constant
Frame rate : 22.000 FPS
Color space : YUV
Chroma subsampling : 4:2:0
Bit depth : 8 bits
Scan type : Progressive
Bits/(Pixel*Frame) : 0.043
Stream size : 11.9 MiB (73{6cfd63bf0435b385b2317765bb9ecb8b6d8cf178c17657517e6e73455ced208f})
Writing library : x264 core 140 r2377 1ca7bb9
Encoding settings : cabac=1 / ref=3 / deblock=1:0:0 / analyse=0x1:0x111 / me=hex / subme=7 / psy=1 / psy_rd=1.00:0.00 / mixed_ref=1 / me_range=16 / chroma_me=1 / trellis=1 / 8x8dct=0 / cqm=0 / deadzone=21,11 / fast_pskip=1 / chroma_qp_offset=-2 / threads=36 / lookahead_threads=2 / sliced_threads=0 / nr=0 / decimate=1 / interlaced=0 / bluray_compat=0 / constrained_intra=0 / bframes=3 / b_pyramid=2 / b_adapt=1 / b_bias=0 / direct=1 / weightb=1 / open_gop=0 / weightp=2 / keyint=250 / keyint_min=22 / scenecut=40 / intra_refresh=0 / rc_lookahead=40 / rc=crf / mbtree=1 / crf=26.0 / qcomp=0.60 / qpmin=0 / qpmax=69 / qpstep=4 / ip_ratio=1.40 / aq=1:1.00

Audio
ID : 2
Format : AAC
Format/Info : Advanced Audio Codec
Format profile : LC
Codec ID : 40
Duration : 16 min 40 s
Bit rate mode : Constant
Bit rate : 32.0 kb/s
Channel(s) : 2 channels
Channel(s)_Original : 1 channel
Channel positions : Front: C
Sampling rate : 22.05 kHz
Frame rate : 21.533 FPS (1024 spf)
Compression mode : Lossy
Stream size : 3.82 MiB (23{6cfd63bf0435b385b2317765bb9ecb8b6d8cf178c17657517e6e73455ced208f})
Default : Yes
Alternate group : 1

Screenshot Fuck With Hot Indonesian Maid – Seks dengan Pembantu Rumah Tangga Binal

Fuck With Hot Indonesian Maid - Seks dengan Pembantu Rumah Tangga Binal
Fuck With Hot Indonesian Maid – Seks dengan Pembantu Rumah Tangga Binal

Download Fuck With Hot Indonesian Maid – Seks dengan Pembantu Rumah Tangga Binal

Fuck With Hot Indonesian Maid – Seks dengan Pembantu Rumah Tangga Binal [SD = 11,1 MB]
OPENLOAD (STREAMING)KBAGIUSERSCLOUDDAILYUPLOADSSorry. Google Drive is suspended in this article. I will reupload again 🙁
Fuck With Hot Indonesian Maid – Seks dengan Pembantu Rumah Tangga Binal [HQ = 16,2 MB]
OPENLOAD (STREAMING)KBAGIUSERSCLOUDDAILYUPLOADSSorry. Google Drive is suspended in this article. I will reupload again 🙁