JAV Maria Ozawa Uncensored – Movie 01


Download JAV Maria Ozawa Uncensored – Movie 01

Biodata Maria Ozawa

Nama Lengkap : Maria Ozawa
Nama Panggilan : Miyabi
Tempat / Tanggal lahir : Hokaido, Jepang 8 Januari 1986

Karir
Profesi : Aktris
Populer : Menjadi aktris film dewasa Jepang (2005)

Data Pribadi
Tempat Lahir : Hokkaido, Jepang
Tinggi Badan : 162 cm
Kewarganegaraan : Jepang
Warna Rambut : Hitam
Warna Mata : Cokelat
Pekerjaan Ayah : Guru Bahasa Inggris

Keluarga dan Hubungan
Populer Sejak : Menjadi aktris film dewasa Jepang (2005)

Informasi Klip Video (Original)

Format : MPEG-4
Format profile : Base Media
Codec ID : isom (isom/mp41)
File size : 478 MiB
Duration : 34 min 38 s
Overall bit rate mode : Constant
Overall bit rate : 1 930 kb/s
Encoded date : UTC 2012-11-27 14:19:44
Tagged date : UTC 2012-11-27 14:19:44
FileExtension_Invalid : mov mp4 m4v m4a m4b m4p m4r 3ga 3gpa 3gpp 3gp 3gpp2 3g2 k3g jpm jpx mqv ismv isma ismt f4a f4b f4v

Video
ID : 1
Format : AVC
Format/Info : Advanced Video Codec
Format profile : Baseline@L3
Format settings : 1 Ref Frames
Format settings, CABAC : No
Format settings, ReFrames : 1 frame
Format settings, GOP : M=1, N=33
Codec ID : avc1
Codec ID/Info : Advanced Video Coding
Duration : 34 min 38 s
Source duration : 34 min 37 s
Bit rate mode : Constant
Bit rate : 1 800 kb/s
Width : 640 pixels
Height : 480 pixels
Display aspect ratio : 4:3
Frame rate mode : Constant
Frame rate : 29.970 (30000/1001) FPS
Standard : NTSC
Color space : YUV
Chroma subsampling : 4:2:0
Bit depth : 8 bits
Scan type : Progressive
Bits/(Pixel*Frame) : 0.196
Stream size : 425 MiB (89%)
Source stream size : 446 MiB (93%)
Language : English
Encoded date : UTC 2012-11-27 14:19:44
Tagged date : UTC 2012-11-27 14:19:44
Color range : Limited
mdhd_Duration : 2076998
Codec configuration box : avcC

Audio
ID : 2
Format : AAC LC
Format/Info : Advanced Audio Codec Low Complexity
Codec ID : mp4a-40-2
Duration : 34 min 38 s
Bit rate mode : Constant
Bit rate : 128 kb/s
Channel(s) : 2 channels
Channel layout : L R
Sampling rate : 48.0 kHz
Frame rate : 46.875 FPS (1024 SPF)
Compression mode : Lossy
Stream size : 31.7 MiB (7%)
Language : English
Encoded date : UTC 2012-11-27 14:19:44
Tagged date : UTC 2012-11-27 14:19:44
mdhd_Duration : 2079925

JAV Maria Ozawa Uncensored - Movie 01
JAV Maria Ozawa Uncensored – Movie 01

 

Catatan :
Supaya lebih awet, file di server Google Drive saya buat 7z atau Rar. Untuk membukanya :
– Gunakan WinRar / 7zip untuk penguna PC/Laptop. Download WinRar / 7zip
– Gunakan ZArchiver untuk pengguna Android. Download ZArchiver (Play Store) atau Mirror

Screenshot JAV Maria Ozawa Uncensored – Movie 01

JAV Maria Ozawa Uncensored - Movie 01
JAV Maria Ozawa Uncensored – Movie 01

Download JAV Maria Ozawa Uncensored – Movie 01

JAV Maria Ozawa Uncensored – Movie 01 [480p = 191,33 MB]
FEMBED (STREAMING)OPENLOAD (STREAMING)USERSCLOUDSOLIDFILESZIPPYSHAREMIRRORGOOGLE DRIVE
JAV Maria Ozawa Uncensored – Movie 01 [CDRip Original = 478,15 MB]
FEMBED (STREAMING)OPENLOAD (STREAMING)USERSCLOUDSOLIDFILESZIPPYSHAREMIRRORGOOGLE DRIVE