JAV Maria Ozawa Uncensored – Movie 03


Download JAV Maria Ozawa Uncensored – Movie 03

Biodata Maria Ozawa

Nama Lengkap : Maria Ozawa
Nama Panggilan : Miyabi
Tempat / Tanggal lahir : Hokaido, Jepang 8 Januari 1986

Karir
Profesi : Aktris
Populer : Menjadi aktris film dewasa Jepang (2005)

Data Pribadi
Tempat Lahir : Hokkaido, Jepang
Tinggi Badan : 162 cm
Kewarganegaraan : Jepang
Warna Rambut : Hitam
Warna Mata : Cokelat
Pekerjaan Ayah : Guru Bahasa Inggris

Keluarga dan Hubungan
Populer Sejak : Menjadi aktris film dewasa Jepang (2005)

Informasi Klip Video (Original)

Format : MPEG-4
Format profile : Base Media
Codec ID : isom (isom/mp41)
File size : 211 MiB
Duration : 22 min 13 s
Overall bit rate mode : Constant
Overall bit rate : 1 330 kb/s
Encoded date : UTC 2012-11-27 15:31:58
Tagged date : UTC 2012-11-27 15:31:58
FileExtension_Invalid : mov mp4 m4v m4a m4b m4p m4r 3ga 3gpa 3gpp 3gp 3gpp2 3g2 k3g jpm jpx mqv ismv isma ismt f4a f4b f4v

Video
ID : 1
Format : AVC
Format/Info : Advanced Video Codec
Format profile : Baseline@L3
Format settings : 1 Ref Frames
Format settings, CABAC : No
Format settings, ReFrames : 1 frame
Format settings, GOP : M=1, N=33
Codec ID : avc1
Codec ID/Info : Advanced Video Coding
Duration : 22 min 13 s
Source duration : 22 min 13 s
Bit rate mode : Constant
Bit rate : 1 141 kb/s
Nominal bit rate : 1 200 kb/s
Width : 720 pixels
Height : 400 pixels
Display aspect ratio : 16:9
Frame rate mode : Constant
Frame rate : 29.970 (30000/1001) FPS
Standard : NTSC
Color space : YUV
Chroma subsampling : 4:2:0
Bit depth : 8 bits
Scan type : Progressive
Bits/(Pixel*Frame) : 0.132
Stream size : 181 MiB (86%)
Source stream size : 191 MiB (90%)
Language : English
Encoded date : UTC 2012-11-27 15:31:58
Tagged date : UTC 2012-11-27 15:31:58
Color range : Limited
mdhd_Duration : 1332907
Codec configuration box : avcC

Audio
ID : 2
Format : AAC LC
Format/Info : Advanced Audio Codec Low Complexity
Codec ID : mp4a-40-2
Duration : 22 min 13 s
Bit rate mode : Constant
Bit rate : 128 kb/s
Channel(s) : 2 channels
Channel layout : L R
Sampling rate : 48.0 kHz
Frame rate : 46.875 FPS (1024 SPF)
Compression mode : Lossy
Stream size : 20.3 MiB (10%)
Language : English
Encoded date : UTC 2012-11-27 15:31:58
Tagged date : UTC 2012-11-27 15:31:58
mdhd_Duration : 1334179

JAV Maria Ozawa Uncensored - Movie 03
JAV Maria Ozawa Uncensored – Movie 03

Catatan :
Supaya lebih awet, file di server Google Drive saya buat 7z atau Rar. Untuk membukanya :
– Gunakan WinRar / 7zip untuk penguna PC/Laptop. Download WinRar / 7zip
– Gunakan ZArchiver untuk pengguna Android. Download ZArchiver (Play Store) atau Mirror

Screenshot JAV Maria Ozawa Uncensored – Movie 03

JAV Maria Ozawa Uncensored - Movie 03
JAV Maria Ozawa Uncensored – Movie 03

Download JAV Maria Ozawa Uncensored – Movie 03

JAV Maria Ozawa Uncensored – Movie 03 [360p = 151,21 MB]
FEMBED (STREAMING)OPENLOAD (STREAMING)USERSCLOUDSOLIDFILESZIPPYSHAREMIRRORGOOGLE DRIVE
JAV Maria Ozawa Uncensored – Movie 03 [Original AVI = 211,35 MB]
FEMBED (STREAMING)OPENLOAD (STREAMING)USERSCLOUDSOLIDFILESZIPPYSHAREMIRRORGOOGLE DRIVE